#TITLE:Kabuki;
#SUBTITLE:Kabuki Quantum Fighter;
#ARTIST:HAL;
#TITLETRANSLIT:;
#SUBTITLETRANSLIT:;
#ARTISTTRANSLIT:;
#CREDIT:;
#BANNER:Kabuki.jpg;
#BACKGROUND:Kabuki-bg.jpg;
#LYRICSPATH:;
#CDTITLE:!psychoTitle.png;
#MUSIC:Kabuki.wav;
#OFFSET:-0.100;
#SAMPLESTART:7.001;
#SAMPLELENGTH:5.300;
#SELECTABLE:YES;
#BPMS:0.000=150.400,56.000=75.200,72.000=150.400,120.000=75.200,136.000=37.600;
#STOPS:;
#BGCHANGES:;
// cache tags:
#FIRSTBEAT:0.000;
#LASTBEAT:136.250;
#SONGFILENAME:Songs/Music V.I.P ^_^/Kabuki (Psycho)/Kabuki.sm;
#HASMUSIC:1;
#HASBANNER:1;
#MUSICLENGTH:69.999;
// end cache tags

//---------------dance-single - ----------------
#NOTES:
     dance-single:
     :
     Hard:
     10:
     1.000,1.000,1.000,1.000,0.829,362.000,75.000,105.000,0.000,0.000:

0001
0010
0100
1000
0100
0010
0100
0001
0010
0100
1000
0100
0010
0001
0010
0100
,
2000
0000
3000
0000
,
2002
3003
0010
0100
0010
0100
2002
3003
0100
0010
0100
0010
2002
3003
0010
0100
,
0010
0100
2002
3003
0100
0010
0100
0010
2002
3003
0010
0000
0220
0330
2002
3003
,
0220
0330
0100
1000
0100
1000
0022
0033
0010
0001
0010
0001
2200
3300
1000
0100
,
1000
0100
0022
0033
0010
0001
0010
0001
1100
0001
1000
0001
1100
0001
1010
0100
,
2002
3003
0010
1000
0001
0100
2002
3003
0100
0001
1000
0010
2002
3003
0100
1000
,
0001
0010
2002
3003
0010
0001
1000
0100
0022
0033
0010
0000
2200
3300
0022
0033
,
2200
3300
0010
1000
0010
1000
0202
0303
0100
0001
0100
0001
2020
3030
1000
0010
,
1000
0010
0202
0303
0100
0001
0100
0001
1100
0001
1000
0001
1010
0001
0110
0001
,
1010
1000
1000
0000
1000
0000
1000
0000
1000
0000
1000
0000
1010
1000
1000
0000
,
1010
1000
1000
0000
1000
0000
1000
0000
1010
1000
1000
0000
1000
0000
1000
0000
,
1010
1000
1000
0000
1000
0000
1000
0000
1000
0000
1000
0000
1010
1000
1000
0000
,
1010
1000
1000
0000
1000
0000
1000
0000
1010
1000
1000
0000
2000
0000
0000
3000
,
0210
0001
0300
0001
0000
0001
2000
0001
,
3020
0001
0030
0001
0000
0001
0000
0001
,
2000
0001
3000
0001
0000
0001
0200
0001
,
0320
0000
0000
0000
0001
0000
0000
0000
0030
0000
0000
0000
0001
0000
0000
0000
0000
0000
0000
0000
0001
0000
0000
0000
1000
0001
0100
0010
1000
0001
0100
0010
,
2002
3003
0100
0010
0100
0010
2002
3003
0010
0100
0010
0100
2002
3003
0100
0010
,
0100
0010
2002
3003
0010
0100
0010
0100
2002
3003
0100
0000
0220
0330
2002
3003
,
0220
0330
0010
0001
0010
0001
2200
3300
0100
1000
0100
1000
0022
0033
0001
0010
,
0001
0010
2200
3300
0100
1000
0100
1000
0011
1000
0001
1000
0011
1000
0101
0010
,
2002
3003
0100
0001
1000
0010
2002
3003
0010
1000
0001
0100
2002
3003
0010
0001
,
1000
0100
2002
3003
0100
1000
0001
0010
2200
3300
0100
0000
0022
0033
2200
3300
,
0022
0033
0100
0001
0100
0001
2020
3030
0010
1000
0010
1000
0202
0303
0001
0100
,
0001
0100
2020
3030
0010
1000
0010
1000
0011
1000
0001
1000
0101
1000
0110
1000
,
0101
0001
0001
0000
0001
0000
0001
0000
0001
0000
0001
0000
0101
0001
0001
0000
,
0101
0001
0001
0000
0001
0000
0001
0000
0101
0001
0001
0000
0001
0000
0001
0000
,
0101
0001
0001
0000
0001
0000
0001
0000
0001
0000
0001
0000
0101
0001
0001
0000
,
0101
0001
0001
0000
0001
0000
0001
0000
0101
0001
0001
0000
0002
0000
0000
0003
,
0210
0001
0300
0001
0000
0001
2000
0001
,
3020
0001
0030
0001
0000
0001
0000
0001
,
2000
0001
3000
0001
0000
0001
0200
0001
,
0320
0000
0000
0000
0001
0000
0000
0000
0030
0000
0000
0000
0001
0000
0000
0000
0000
0000
0000
0000
0001
0000
0000
0000
1000
0001
0100
0010
1000
0001
0100
0010
,
2002
3003
0000
0000
0000
0000
0000
0000
0000
0000
0000
0000
0000
0000
0000
0000
;
